Teraz jest środa, 26 czerwca 2019, 20:22




Stwórz nowy wątek Odpowiedz w wątku  [ Posty: 8 ] 
 format MTS ... z czym do jeść 
Autor Wiadomość
Nowy
Nowy

Dołączył: poniedziałek, 28 lutego 2011, 17:20
Posty: 6
Post format MTS ... z czym do jeść
Witam kupiłem kamere panasonic zapisuje ona w formacie MTS ...dopiero zaczynam zrzucac materiał i sie nim bawić ale wole odrazu zapytać żeby sie kombinować

1. czy jest program który obsluguje ten format?? edius sony vegas itp...
2. jesli do obróbki trzeba konwertować na inny format to na jaki najlepiej zeby nie stracic jakości?
3. podczas odtwarzania w WMP pliki mts niema dzwięków tylko trzaski w głośnikach jakaś porada? jak konwertuje na mpeg2 to dzwiek jest tylko jakość ...:/


wtorek, 15 marca 2011, 20:21
Zobacz profil
Moderator
Moderator

Dołączył: środa, 26 lipca 2006, 10:57
Posty: 4727
Lokalizacja: Tczew
Post Re: format MTS ... z czym do jeść
1 Tak, Sony, Cyberlink, Corel (Ulead) i inne, (o ile dobrze pamiętam), widzą te pliki.
2 Mimo wszystko mpeg2, bo to praktycznie to samo, tylko inaczej zapisane.
3 Jak to robisz i czym?
PS Co to za kamera?

_________________
最诚挚的问候


wtorek, 15 marca 2011, 22:50
Zobacz profil
Aktywny bywalec
Aktywny bywalec
Avatar użytkownika

Dołączył: poniedziałek, 31 maja 2010, 11:05
Posty: 1906
Lokalizacja: Opole
Post Re: format MTS ... z czym do jeść
kotin napisał(a):
2 Mimo wszystko mpeg2, bo to praktycznie to samo, tylko inaczej zapisane.

To samo czyli ruchomy obraz, bo codeck całkiem inny.
MediaInfo napisał(a):
General
ID : 0 (0x0)
Complete name : D:\Video\Atlantis\Atlantis Film I\00000.MTS
Format : BDAV
Format/Info : Blu-ray Video
File size : 33.7 MiB
Duration : 27s 540ms
Overall bit rate : 10.3 Mbps
Maximum Overall bit rate : 18.0 Mbps

Video
ID : 4113 (0x1011)
Menu ID : 1 (0x1)
Format : AVC
Format/Info : Advanced Video Codec
Format profile : High@L4.0
Format settings, CABAC : Yes
Format settings, ReFrames : 2 frames
Format settings, GOP : M=1, N=26
Codec ID : 27
Duration : 26s 960ms
Bit rate mode : Variable
Bit rate : 9 584 Kbps
Maximum bit rate : 16.0 Mbps
Width : 1 440 pixels
Height : 1 080 pixels
Display aspect ratio : 16:9
Frame rate : 25.000 fps
Color space : YUV
Chroma subsampling : 4:2:0
Bit depth : 8 bits
Scan type : Interlaced
Scan order : Top Field First
Bits/(Pixel*Frame) : 0.246
Stream size : 30.8 MiB (91%)

Audio
ID : 4352 (0x1100)
Menu ID : 1 (0x1)
Format : AC-3
Format/Info : Audio Coding 3
Mode extension : CM (complete main)
Codec ID : 129
Duration : 27s 40ms
Bit rate mode : Constant
Bit rate : 256 Kbps
Channel(s) : 2 channels
Channel positions : Front: L R
Sampling rate : 48.0 KHz
Bit depth : 16 bits
Compression mode : Lossy
Delay relative to video : -80ms
Stream size : 845 KiB (2%)


_________________
Obrazek


wtorek, 15 marca 2011, 23:09
Zobacz profil
Moderator
Moderator

Dołączył: środa, 26 lipca 2006, 10:57
Posty: 4727
Lokalizacja: Tczew
Post Re: format MTS ... z czym do jeść
Aj tam, aj tam :mrgreen: ale znalazłem przynajmniej czym się to montuje: LINK. :wink:

_________________
最诚挚的问候


wtorek, 15 marca 2011, 23:25
Zobacz profil
Nowy
Nowy

Dołączył: poniedziałek, 28 lutego 2011, 17:20
Posty: 6
Post Re: format MTS ... z czym do jeść
tu kawałek filmu wrzucony na rapida

http://rapidshare.com/files/452843949/00005.MTS


kamera to panasonic sdt750


środa, 16 marca 2011, 18:05
Zobacz profil
Aktywny bywalec
Aktywny bywalec
Avatar użytkownika

Dołączył: poniedziałek, 31 maja 2010, 11:05
Posty: 1906
Lokalizacja: Opole
Post Re: format MTS ... z czym do jeść
adiboss1 napisał(a):
tu kawałek filmu wrzucony na rapida

http://rapidshare.com/files/452843949/00005.MTS


kamera to panasonic sdt750

No ale dostałeś odpowiedzi, o co tym razem pytasz?

PS
Wydłub przycisk zoom, bo robisz straszne rzeczy.

_________________
Obrazek


czwartek, 17 marca 2011, 02:07
Zobacz profil
Nowy
Nowy

Dołączył: poniedziałek, 28 lutego 2011, 17:20
Posty: 6
Post Re: format MTS ... z czym do jeść
pytam o co chodzi z dzwiekiem bo u mnie same trzaski.


odp od. ps ... to było moje pierwsze włączenie kamery praktycznie chciałem zobaczyc jak wszystko działa ja nie tworze ...


czwartek, 17 marca 2011, 06:50
Zobacz profil
Aktywny bywalec
Aktywny bywalec
Avatar użytkownika

Dołączył: poniedziałek, 31 maja 2010, 11:05
Posty: 1906
Lokalizacja: Opole
Post Re: format MTS ... z czym do jeść
Na podanym klipie nie ma trzasków, jest wiatr dmiący w mikrofon.
A gdzie te trzaski słyszysz? Dopytam żebyś nie odpowiedział że w klipie. W jakim programie edycyjnym?

_________________
Obrazek


czwartek, 17 marca 2011, 08:57
Zobacz profil
Wyświetl posty nie starsze niż:  Sortuj wg  
Stwórz nowy wątek Odpowiedz w wątku  [ Posty: 8 ] 


Kto przegląda forum

Użytkownicy przeglądający to forum: Brak zalogowanych użytkowników i 5 gości


Nie możesz rozpoczynać nowych wątków
Nie możesz odpowiadać w wątkach
Nie możesz edytować swoich postów
Nie możesz usuwać swoich postów
Nie możesz dodawać załączników

Szukaj:
Skocz do:  
Powered by phpBB © phpBB Group.
Designed by Vjacheslav Trushkin for Free Forums/DivisionCore.
Przyjazne użytkownikom polskie wsparcie phpBB3 - phpBB3.PL