Teraz jest poniedziałek, 14 października 2019, 00:56




Stwórz nowy wątek Odpowiedz w wątku  [ Posty: 3 ] 
 Pytanie odnośnie konwersji .MKV na odtwarzacz DVD 
Autor Wiadomość
Aktywny bywalec
Aktywny bywalec
Post Pytanie odnośnie konwersji .MKV na odtwarzacz DVD
Witam serdecznie. Mam plik o następujących parametrach:
Kod:
General
Format                                   : Matroska
Format version                           : Version 2
File size                                : 3.68 GiB
Duration                                 : 2h 11mn
Overall bit rate                         : 4 006 Kbps
Encoded date                             : UTC 2014-10-03 22:49:45
Writing application                      : mkvmerge v7.0.0 ('Where We Going') 32bit built on Jun  9 2014 15:08:34
Writing library                          : libebml v1.3.0 + libmatroska v1.4.1
DURATION                                 : 00:17:56.283000000
NUMBER_OF_FRAMES                         : 24
NUMBER_OF_BYTES                          : 700
_STATISTICS_WRITING_APP                  : mkvmerge v7.0.0 ('Where We Going') 32bit built on Jun  9 2014 15:08:34
_STATISTICS_WRITING_DATE_UTC             : 2014-10-03 22:49:45
_STATISTICS_TAGS                         : BPS DURATION NUMBER_OF_FRAMES NUMBER_OF_BYTES

Video
ID                                       : 1
Format                                   : AVC
Format/Info                              : Advanced Video Codec
Format profile                           : High@L4.1
Format settings, CABAC                   : Yes
Format settings, ReFrames                : 5 frames
Codec ID                                 : V_MPEG4/ISO/AVC
Duration                                 : 2h 11mn
Bit rate                                 : 3 250 Kbps
Width                                    : 1 920 pixels
Height                                   : 800 pixels
Display aspect ratio                     : 2.40:1
Frame rate mode                          : Constant
Frame rate                               : 23.976 fps
Color space                              : YUV
Chroma subsampling                       : 4:2:0
Bit depth                                : 8 bits
Scan type                                : Progressive
Bits/(Pixel*Frame)                       : 0.088
Stream size                              : 2.92 GiB (79%)
Writing library                          : x264 core 142 r2431 ac76440
Encoding settings                        : cabac=1 / ref=5 / deblock=1:-1:-1 / analyse=0x3:0x113 / me=umh / subme=6 / psy=1 / psy_rd=1.00:0.00 / mixed_ref=1 / me_range=30 / chroma_me=1 / trellis=1 / 8x8dct=1 / cqm=2 / deadzone=21,11 / fast_pskip=0 / chroma_qp_offset=-2 / threads=6 / lookahead_threads=1 / sliced_threads=0 / nr=0 / decimate=0 / interlaced=0 / bluray_compat=0 / constrained_intra=0 / bframes=5 / b_pyramid=2 / b_adapt=2 / b_bias=0 / direct=3 / weightb=1 / open_gop=0 / weightp=2 / keyint=240 / keyint_min=23 / scenecut=40 / intra_refresh=0 / rc_lookahead=50 / rc=2pass / mbtree=1 / bitrate=3250 / ratetol=1.0 / qcomp=0.60 / qpmin=1 / qpmax=69 / qpstep=4 / cplxblur=20.0 / qblur=0.5 / vbv_maxrate=62500 / vbv_bufsize=78125 / nal_hrd=none / filler=0 / ip_ratio=1.40 / aq=1:1.00
Language                                 : English
Default                                  : Yes
Forced                                   : No
DURATION                                 : 02:11:35.346000000
NUMBER_OF_FRAMES                         : 189299
NUMBER_OF_BYTES                          : 3206944518
_STATISTICS_WRITING_APP                  : mkvmerge v7.0.0 ('Where We Going') 32bit built on Jun  9 2014 15:08:34
_STATISTICS_WRITING_DATE_UTC             : 2014-10-03 22:49:45
_STATISTICS_TAGS                         : BPS DURATION NUMBER_OF_FRAMES NUMBER_OF_BYTES

Audio
ID                                       : 2
Format                                   : DTS
Format/Info                              : Digital Theater Systems
Mode                                     : 16
Format settings, Endianness              : Big
Codec ID                                 : A_DTS
Duration                                 : 2h 11mn
Bit rate mode                            : Constant
Bit rate                                 : 755 Kbps
Channel(s)                               : 6 channels
Channel positions                        : Front: L C R, Side: L R, LFE
Sampling rate                            : 48.0 KHz
Bit depth                                : 24 bits
Compression mode                         : Lossy
Stream size                              : 710 MiB (19%)
Language                                 : English
Default                                  : Yes
Forced                                   : No


A więc typowy plik 1080p. Chciałbym go skonwertować tak, żebym mógł go bez problemu odtworzyć na odtwarzaczu DVD Panasonic DVD-S511 - specyfikacja tutaj http://www.telekom.com.pl/panasonic/opisy_dvd_mag/dvd-s511.htm

Od razu mówię, że nie jestem zielony w tych sprawach, ale potrzebuję porady, bo nie mogę się z tym uporać :) Według producenta odtwarza MPEG-4, DivX oraz wiem, że nie ma problemu też z AVI np. takiego typu:
Kod:
General
Complete name                            : D:\08_01.avi
Format                                   : AVI
Format/Info                              : Audio Video Interleave
File size                                : 350 MiB
Duration                                 : 43mn 10s
Overall bit rate mode                    : Variable
Overall bit rate                         : 1 134 Kbps
Writing application                      : VirtualDubMod 1.5.10.2 (build 2542/release)
Writing library                          : VirtualDubMod build 2542/release

Video
ID                                       : 0
Format                                   : MPEG-4 Visual
Format profile                           : Advanced Simple@L5
Format settings, BVOP                    : 1
Format settings, QPel                    : No
Format settings, GMC                     : No warppoints
Format settings, Matrix                  : Default (H.263)
Muxing mode                              : Packed bitstream
Codec ID                                 : XVID
Codec ID/Hint                            : XviD
Duration                                 : 43mn 10s
Bit rate                                 : 968 Kbps
Width                                    : 624 pixels
Height                                   : 352 pixels
Display aspect ratio                     : 16:9
Frame rate                               : 23.976 fps
Color space                              : YUV
Chroma subsampling                       : 4:2:0
Bit depth                                : 8 bits
Scan type                                : Progressive
Compression mode                         : Lossy
Bits/(Pixel*Frame)                       : 0.184
Stream size                              : 299 MiB (85%)
Writing library                          : XviD 62

Audio
ID                                       : 1
Format                                   : MPEG Audio
Format version                           : Version 1
Format profile                           : Layer 3
Mode                                     : Joint stereo
Mode extension                           : MS Stereo
Codec ID                                 : 55
Codec ID/Hint                            : MP3
Duration                                 : 43mn 10s
Bit rate mode                            : Variable
Bit rate                                 : 160 Kbps
Channel(s)                               : 2 channels
Sampling rate                            : 48.0 KHz
Compression mode                         : Lossy
Stream size                              : 47.2 MiB (13%)
Alignment                                : Aligned on interleaves
Interleave, duration                     : 24 ms (0.58 video frame)
Interleave, preload duration             : 494 ms
Writing library                          : LAME3.98r
Encoding settings                        : -m j -V 4 -q 3 -lowpass 17.5 --abr 160


Podsumowując, w jakim programie + z jakimi ustawieniami go skonwerterować?

Pozdrawiam.


środa, 22 października 2014, 23:03
Stały bywalec
Stały bywalec

Dołączył: środa, 9 kwietnia 2014, 09:20
Posty: 61
Post Re: Pytanie odnośnie konwersji .MKV na odtwarzacz DVD
to polecam coś łatwego i przyjemnego np
http://www.pazera-software.pl/products/ ... converter/


czwartek, 23 października 2014, 01:04
Zobacz profil
Aktywny bywalec
Aktywny bywalec

Dołączył: poniedziałek, 23 stycznia 2006, 15:20
Posty: 2034
Post Re: Pytanie odnośnie konwersji .MKV na odtwarzacz DVD
Freemake Video Converter.


czwartek, 23 października 2014, 12:14
Zobacz profil
Wyświetl posty nie starsze niż:  Sortuj wg  
Stwórz nowy wątek Odpowiedz w wątku  [ Posty: 3 ] 


Kto przegląda forum

Użytkownicy przeglądający to forum: Brak zalogowanych użytkowników i 2 gości


Nie możesz rozpoczynać nowych wątków
Nie możesz odpowiadać w wątkach
Nie możesz edytować swoich postów
Nie możesz usuwać swoich postów
Nie możesz dodawać załączników

Szukaj:
Skocz do:  
Powered by phpBB © phpBB Group.
Designed by Vjacheslav Trushkin for Free Forums/DivisionCore.
Przyjazne użytkownikom polskie wsparcie phpBB3 - phpBB3.PL