Teraz jest wtorek, 21 stycznia 2020, 09:46




Stwórz nowy wątek Odpowiedz w wątku  [ Posty: 6 ] 
 Jak nagrać plik 7,13 GB na płytę DVD ? 
Autor Wiadomość
Nowy
Nowy

Dołączył: środa, 11 sierpnia 2010, 09:08
Posty: 2
Post Jak nagrać plik 7,13 GB na płytę DVD ?
Dzień dobry
jestem laikiem, jeżeli chodzi o tematykę montażu DVD. Zwracam się z pytaniem i prośbą o pomoc, jak mogę nagrać plik MPEG Video File z uroczystości o wielkości 7,13 GB na standardową płytę DVD?
Płyta DVD ma tylko 4,7 GB a mój plik, który dostałem na pendrive ma 7,13 GB
Przekonwertowałem film do pliku MP4 ale to wygenerowało nowy plik o wielkości 6,26 GB i nadal jest to chyba zbyt wiele aby umieścić na płycie DVD.
Potrzebuję nagrać plik na płytę DVD, aby można ją było odtworzyć na zwykłym odtwarzaczu DVD.
Kiedyś był taki program DVD Shrink, ale był on przeznaczony dla starszych systemów Windows. Ja aktualnie mam u siebie Windows 10.
Będę wdzięczny za pomoc i wszelkie sugestie?

Pozdrawiam
Marek


poniedziałek, 16 września 2019, 09:52
Zobacz profil
Aktywny bywalec
Aktywny bywalec

Dołączył: poniedziałek, 6 czerwca 2016, 18:29
Posty: 574
Post Re: Jak nagrać plik 7,13 GB na płytę DVD ?
Potrzebna jest ci płyta DVD Dual Layer. Pamiętaj, że nagranie takiego pliku nie daje możliwości odtworzenia go na odtwarzaczu DVD. Aby była taka możliwość musisz przerobić go na odpowiedni format i zrobić authoring DVD czyli - dodać rozdziały, menu itp. Jeżeli nagranie jest FHD 1920x1080 to nastąpi znaczna degradacja obrazu bo przerabiasz go na standard SD do rozdzielczości 720x576. Jest to najgorsza z możliwych opcji. Można również stworzyć płytę Blue Ray jeżeli nagranie jest HD. Wtedy potrzebna jest nagrywarka no i odpowiedni odtwarzacz. Oczywiście tu też trzeba zrobić authoring BD. W tym przypadku zachowasz jakość FHD
Najłatwiejsze rozwiązania tego "problemu"
- jeżeli masz smart TV z wejściem usb to podłącz "pena" z nagraniem do TV. Obecne TV bez problemu czytają pliki mp4.
- podłącz PC pod TV i użyj go jako odtwarzacz
- jeżeli twój TV nie jest "smart" to dokup odtwarzacz który potrafi to robić np XIAOMI MI Box S

Jak możesz daj informację z MediaInfo o właściwościach pliku, który posiadasz.

_________________
Magix Video Pro X i inne, Davinci Resolve - początki Poradniki YT - Klik


poniedziałek, 16 września 2019, 11:15
Zobacz profil
Moderator
Moderator

Dołączył: środa, 26 lipca 2006, 10:57
Posty: 4962
Lokalizacja: Tczew
Post Re: Jak nagrać plik 7,13 GB na płytę DVD ?
Uważam tak samo jak Fransua, a w dodatku to o co chyba domyślnie prosisz - czyli o proste skompresowanie do pliku 4,5 GB DVD - to zdegradowanie jakości filmu do poziomu w którym już praktycznie nic nie zobaczysz, a najwyżej będziesz się domyślał o co chodziło w filmie.

_________________
最诚挚的问候


poniedziałek, 16 września 2019, 11:44
Zobacz profil
Nowy
Nowy

Dołączył: środa, 11 sierpnia 2010, 09:08
Posty: 2
Post Re: Jak nagrać plik 7,13 GB na płytę DVD ?
Dziękuję za odpowiedzi.
Szukam jak najprostszej metody, bez tworzenia rozdziałów, menu, aby film z uroczystości odtworzyć na stacjonarnym DVD.
Co do właściwości pliku to pierwszy
- MPEG Video File (.mpg)
General
Complete name : D:\Dane\Koncert Rytmiki 2018.mpg
Format : MPEG-PS
File size : 7.14 GiB
Duration : 49 min 18 s
Overall bit rate mode : Constant
Overall bit rate : 20.7 Mb/s

Video
ID : 224 (0xE0)
Format : MPEG Video
Format version : Version 2
Format profile : Main@High
Format settings, BVOP : Yes
Format settings, Matrix : Custom
Format settings, GOP : M=3, N=15
Format settings, picture st : Frame
Duration : 49 min 18 s
Bit rate mode : Constant
Bit rate : 20.0 Mb/s
Width : 1 920 pixels
Height : 1 080 pixels
Display aspect ratio : 16:9
Frame rate : 25.000 FPS
Color space : YUV
Chroma subsampling : 4:2:0
Bit depth : 8 bits
Scan type : Interlaced
Scan order : Top Field First
Compression mode : Lossy
Bits/(Pixel*Frame) : 0.386
Time code of first frame : 00:00:00:00
Time code source : Group of pictures header
GOP, Open/Closed : Open
GOP, Open/Closed of first f : Closed
Stream size : 6.86 GiB (96%)

Audio
ID : 189 (0xBD)-128 (0x80)
Format : AC-3
Format/Info : Audio Coding 3
Mode extension : CM (complete main)
Format settings, Endianness : Big
Muxing mode : DVD-Video
Duration : 49 min 18 s
Bit rate mode : Constant
Bit rate : 384 kb/s
Channel(s) : 2 channels
Channel positions : Front: L R
Sampling rate : 48.0 kHz
Frame rate : 31.250 FPS (1536 spf)
Bit depth : 16 bits
Compression mode : Lossy
Stream size : 135 MiB (2%)

a drugi Plik MP4 (.mp4)
General
Complete name : D:\Dane\Koncert rytmiki.mp4
Format : MPEG-4
Format profile : Base Media / Version 2
Codec ID : mp42 (mp41/isom)
File size : 6.26 GiB
Duration : 49 min 18 s
Overall bit rate mode : Constant
Overall bit rate : 18.2 Mb/s
Encoded date : UTC 2019-04-18 16:19:24
Tagged date : UTC 2019-04-18 16:19:24

Video
ID : 1
Format : AVC
Format/Info : Advanced Video Codec
Format profile : Main@L4
Format settings, CABAC : Yes
Format settings, ReFrames : 1 frame
Codec ID : avc1
Codec ID/Info : Advanced Video Coding
Duration : 49 min 17 s
Bit rate mode : Constant
Bit rate : 18.0 Mb/s
Width : 1 920 pixels
Height : 1 080 pixels
Display aspect ratio : 16:9
Frame rate mode : Constant
Frame rate : 30.000 FPS
Color space : YUV
Chroma subsampling : 4:2:0
Bit depth : 8 bits
Scan type : Progressive
Bits/(Pixel*Frame) : 0.289
Stream size : 6.20 GiB (99%)
Encoded date : UTC 2019-04-18 16:19:24
Tagged date : UTC 2019-04-18 16:19:24
mdhd_Duration : 2957967

Audio
ID : 2
Format : AAC
Format/Info : Advanced Audio Codec
Format profile : LC
Codec ID : 40
Duration : 49 min 18 s
Bit rate mode : Constant
Bit rate : 192 kb/s
Channel(s) : 2 channels
Channel positions : Front: L R
Sampling rate : 48.0 kHz
Frame rate : 46.875 FPS (1024 spf)
Compression mode : Lossy
Stream size : 69.1 MiB (1%)
Encoded date : UTC 2019-04-18 16:19:24
Tagged date : UTC 2019-04-18 16:19:24
mdhd_Duration : 2958016

Pozdrawiam
Marek


poniedziałek, 16 września 2019, 17:34
Zobacz profil
Moderator
Moderator

Dołączył: środa, 26 lipca 2006, 10:57
Posty: 4962
Lokalizacja: Tczew
Post Re: Jak nagrać plik 7,13 GB na płytę DVD ?
Masz film w rozdzielczości 1920x1080p a chcesz go zamienić na DVD - czyli 720×576i. Nie rób tego. Zapomnij o płytce DVD. Sprawdź, czy Twój docelowy telewizor odtworzy któryś z plików, który masz. Jeżeli nie, spróbujemy inne kodeki. Sprawdź czy odtwarza po USB z pendrive, czy z karty SD. W najgorszym razie odtworzysz z laptopa / tabletu / Box TV po HDMI na przykład. Jeżeli z pendrive, ani z karty SD, (bo to dwa najtańsze rozwiązania), telewizor Twoich plików nie odtwarza, to zajmiemy się konwersją do kodeka bardziej lubianego przez ten telewizor.

_________________
最诚挚的问候


poniedziałek, 16 września 2019, 18:35
Zobacz profil
Aktywny bywalec
Aktywny bywalec

Dołączył: poniedziałek, 6 czerwca 2016, 18:29
Posty: 574
Post Re: Jak nagrać plik 7,13 GB na płytę DVD ?
Dla czego usilnie chcesz popsuć sobie nagranie ? Dzisiaj nie ma żadnego argumentu by to robić. Jakość DVD/SD to przeżytek. Ja to nawet traktuję jak powrót do kaset VHS.

_________________
Magix Video Pro X i inne, Davinci Resolve - początki Poradniki YT - Klik


poniedziałek, 16 września 2019, 18:42
Zobacz profil
Wyświetl posty nie starsze niż:  Sortuj wg  
Stwórz nowy wątek Odpowiedz w wątku  [ Posty: 6 ] 


Kto przegląda forum

Użytkownicy przeglądający to forum: Brak zalogowanych użytkowników i 4 gości


Nie możesz rozpoczynać nowych wątków
Nie możesz odpowiadać w wątkach
Nie możesz edytować swoich postów
Nie możesz usuwać swoich postów
Nie możesz dodawać załączników

Szukaj:
Skocz do:  
cron
Powered by phpBB © phpBB Group.
Designed by Vjacheslav Trushkin for Free Forums/DivisionCore.
Przyjazne użytkownikom polskie wsparcie phpBB3 - phpBB3.PL