Teraz jest środa, 15 sierpnia 2018, 15:38




Stwórz nowy wątek Odpowiedz w wątku  [ Posty: 9 ] 
 DVD nie otwiera filmów w formacie VOB 
Autor Wiadomość
Nowy
Nowy

Dołączył: czwartek, 17 grudnia 2015, 00:23
Posty: 2
Post DVD nie otwiera filmów w formacie VOB
Witam Wszystkich

tak jak w temacie Moja koleżanka dała mi 3 płyty dvd z wesela do przerobienia na inny format bo u niej na kinie domowym Panasonic SC-PT 850 po prostu się nie otwierają. Myślałem że to będzie proste przerobić format vob na avi i po problemie ale tak niestety się nie stało potem próbowałem jeszcze zmienić na mpg ale to nic nie dało. Próbowałem jeszcze połączyć wszystkie osobne pliki w 1 film w formacie vob a potem avi ale też nie pomogło. Dodam że do zmiany formatu używałem programu format factory no i nero. Najlepsze w tym wszytkim jest to że jak przerabiałem vob na avi to moje dvd je bez problemu czytało a jest to stare dvd viva i myślałem że każde dvd czyta filmy w formacie avi ale tak nie jest.

Tu wklejam dokładne dane o filmie:

General
Complete name : C:\Users\Piotr\Desktop\wesele\1\VIDEO_TS.BUP
Format : DVD Video
Format profile : Menu
File size : 12.0 KiB
Overall bit rate mode : Variable

Video
ID : 224 (0xE0)
Format : MPEG Video
Format version : Version 2
Bit rate mode : Variable
Width : 720 pixels
Height : 576 pixels
Display aspect ratio : 16:9
Frame rate : 25.000 fps
Standard : PAL
Compression mode : Lossy

Audio
Format : PCM
Channel(s) : 2 channels
Sampling rate : 48.0 KHz

Text
Format : RLE
Format/Info : Run-length encoding
Bit depth : 2 bits

General
Complete name : C:\Users\Piotr\Desktop\wesele\1\VIDEO_TS.IFO
Format : DVD Video
Format profile : Menu
File size : 12.0 KiB
Overall bit rate mode : Variable

Video
ID : 224 (0xE0)
Format : MPEG Video
Format version : Version 2
Bit rate mode : Variable
Width : 720 pixels
Height : 576 pixels
Display aspect ratio : 16:9
Frame rate : 25.000 fps
Standard : PAL
Compression mode : Lossy

Audio
Format : PCM
Channel(s) : 2 channels
Sampling rate : 48.0 KHz

Text
Format : RLE
Format/Info : Run-length encoding
Bit depth : 2 bits

General
Complete name : C:\Users\Piotr\Desktop\wesele\1\VIDEO_TS.VOB
Format : MPEG-PS
File size : 34.8 MiB
Duration : 30s 120ms
Overall bit rate : 9 680 Kbps

Video
ID : 224 (0xE0)
Format : MPEG Video
Format version : Version 2
Format profile : Main@Main
Format settings, BVOP : Yes
Format settings, Matrix : Default
Format settings, GOP : M=3, N=15
Format settings, picture structure : Frame
Duration : 30s 120ms
Bit rate : 8 000 Kbps
Width : 720 pixels
Height : 576 pixels
Display aspect ratio : 16:9
Frame rate : 25.000 fps
Standard : PAL
Color space : YUV
Chroma subsampling : 4:2:0
Bit depth : 8 bits
Scan type : Interlaced
Scan order : Top Field First
Compression mode : Lossy
Bits/(Pixel*Frame) : 0.772
Time code of first frame : 00:00:00:00
Time code source : Group of pictures header
GOP, Open/Closed : Open
GOP, Open/Closed of first frame : Closed
Stream size : 28.6 MiB (82%)

Audio
ID : 189 (0xBD)-160 (0xA0)
Format : PCM
Format settings, Endianness : Big
Format settings, Sign : Signed
Muxing mode : DVD-Video
Duration : 30s 36ms
Bit rate mode : Constant
Bit rate : 1 536 Kbps
Channel(s) : 2 channels
Sampling rate : 48.0 KHz
Bit depth : 16 bits
Stream size : 5.50 MiB (16%)

Text #1
ID : 189 (0xBD)-32 (0x20)
Format : RLE
Format/Info : Run-length encoding
Muxing mode : DVD-Video

Text #2
ID : 189 (0xBD)-33 (0x21)
Format : RLE
Format/Info : Run-length encoding
Muxing mode : DVD-Video

Menu

General
Complete name : C:\Users\Piotr\Desktop\wesele\1\VTS_01_0.BUP
Format : DVD Video
Format profile : Program
File size : 48.0 KiB
Duration : 1h 5mn
Overall bit rate mode : Variable
Overall bit rate : 100 bps

Video
ID : 224 (0xE0)
Format : MPEG Video
Format version : Version 2
Duration : 1h 5mn
Bit rate mode : Variable
Width : 720 pixels
Height : 576 pixels
Display aspect ratio : 16:9
Frame rate : 25.000 fps
Standard : PAL
Compression mode : Lossy

Audio
ID : 128 (0x80)
Format : AC-3
Format/Info : Audio Coding 3
Duration : 1h 5mn
Channel(s) : 6 channels
Sampling rate : 48.0 KHz
Compression mode : Lossy

Menu
Duration : 1h 5mn
00:00:00.000 : Chapter 1
00:15:17.320 : Chapter 2
00:26:01.600 : Chapter 3
00:41:11.680 : Chapter 4
00:44:04.520 : Chapter 5
00:54:13.520 : Chapter 6
List (Audio) : 0

General
Complete name : C:\Users\Piotr\Desktop\wesele\1\VTS_01_0.IFO
Format : DVD Video
Format profile : Program
File size : 48.0 KiB
Duration : 1h 5mn
Overall bit rate mode : Variable
Overall bit rate : 100 bps

Video
ID : 224 (0xE0)
Format : MPEG Video
Format version : Version 2
Duration : 1h 5mn
Bit rate mode : Variable
Width : 720 pixels
Height : 576 pixels
Display aspect ratio : 16:9
Frame rate : 25.000 fps
Standard : PAL
Compression mode : Lossy

Audio
ID : 128 (0x80)
Format : AC-3
Format/Info : Audio Coding 3
Duration : 1h 5mn
Channel(s) : 6 channels
Sampling rate : 48.0 KHz
Compression mode : Lossy

Menu
Duration : 1h 5mn
00:00:00.000 : Chapter 1
00:15:17.320 : Chapter 2
00:26:01.600 : Chapter 3
00:41:11.680 : Chapter 4
00:44:04.520 : Chapter 5
00:54:13.520 : Chapter 6
List (Audio) : 0

General
Complete name : C:\Users\Piotr\Desktop\wesele\1\VTS_01_0.VOB
Format : MPEG-PS
File size : 34.8 MiB
Duration : 30s 120ms
Overall bit rate : 9 680 Kbps

Video
ID : 224 (0xE0)
Format : MPEG Video
Format version : Version 2
Format profile : Main@Main
Format settings, BVOP : Yes
Format settings, Matrix : Default
Format settings, GOP : M=3, N=15
Format settings, picture structure : Frame
Duration : 30s 120ms
Bit rate : 8 000 Kbps
Width : 720 pixels
Height : 576 pixels
Display aspect ratio : 16:9
Frame rate : 25.000 fps
Standard : PAL
Color space : YUV
Chroma subsampling : 4:2:0
Bit depth : 8 bits
Scan type : Interlaced
Scan order : Top Field First
Compression mode : Lossy
Bits/(Pixel*Frame) : 0.772
Time code of first frame : 00:00:00:00
Time code source : Group of pictures header
GOP, Open/Closed : Open
GOP, Open/Closed of first frame : Closed
Stream size : 28.5 MiB (82%)

Audio
ID : 189 (0xBD)-160 (0xA0)
Format : PCM
Format settings, Endianness : Big
Format settings, Sign : Signed
Muxing mode : DVD-Video
Duration : 30s 36ms
Bit rate mode : Constant
Bit rate : 1 536 Kbps
Channel(s) : 2 channels
Sampling rate : 48.0 KHz
Bit depth : 16 bits
Stream size : 5.50 MiB (16%)

Text #1
ID : 189 (0xBD)-32 (0x20)
Format : RLE
Format/Info : Run-length encoding
Muxing mode : DVD-Video

Text #2
ID : 189 (0xBD)-33 (0x21)
Format : RLE
Format/Info : Run-length encoding
Muxing mode : DVD-Video

Menu

General
Complete name : C:\Users\Piotr\Desktop\wesele\1\VTS_01_1.VOB
Format : MPEG-PS
File size : 1 024 MiB
Duration : 16mn 47s
Overall bit rate : 8 523 Kbps

Video
ID : 224 (0xE0)
Format : MPEG Video
Format version : Version 2
Format profile : Main@Main
Format settings, BVOP : Yes
Format settings, Matrix : Custom
Format settings, GOP : M=3, N=15
Format settings, picture structure : Frame
Duration : 16mn 47s
Bit rate : 8 000 Kbps
Width : 720 pixels
Height : 576 pixels
Display aspect ratio : 16:9
Frame rate : 25.000 fps
Standard : PAL
Color space : YUV
Chroma subsampling : 4:2:0
Bit depth : 8 bits
Scan type : Interlaced
Scan order : Top Field First
Compression mode : Lossy
Bits/(Pixel*Frame) : 0.772
Time code of first frame : 00:00:00:00
Time code source : Group of pictures header
GOP, Open/Closed : Open
GOP, Open/Closed of first frame : Closed
Stream size : 957 MiB (94%)

Audio
ID : 189 (0xBD)-128 (0x80)
Format : AC-3
Format/Info : Audio Coding 3
Mode extension : CM (complete main)
Format settings, Endianness : Big
Muxing mode : DVD-Video
Duration : 16mn 47s
Bit rate mode : Constant
Bit rate : 384 Kbps
Channel(s) : 6 channels
Channel positions : Front: L C R, Side: L R, LFE
Sampling rate : 48.0 KHz
Compression mode : Lossy
Stream size : 46.1 MiB (5%)

Menu

General
Complete name : C:\Users\Piotr\Desktop\wesele\1\VTS_01_2.VOB
Format : MPEG-PS
File size : 1 024 MiB
Duration : 16mn 47s
Overall bit rate : 8 524 Kbps

Video
ID : 224 (0xE0)
Format : MPEG Video
Format version : Version 2
Format profile : Main@Main
Format settings, BVOP : Yes
Format settings, Matrix : Custom
Format settings, GOP : M=3, N=15
Format settings, picture structure : Frame
Duration : 16mn 47s
Bit rate : 8 000 Kbps
Width : 720 pixels
Height : 576 pixels
Display aspect ratio : 16:9
Frame rate : 25.000 fps
Standard : PAL
Color space : YUV
Chroma subsampling : 4:2:0
Bit depth : 8 bits
Scan type : Interlaced
Scan order : Top Field First
Compression mode : Lossy
Bits/(Pixel*Frame) : 0.772
Time code of first frame : 00:16:47:21
Time code source : Group of pictures header
GOP, Open/Closed : Open
Stream size : 957 MiB (93%)

Audio
ID : 189 (0xBD)-128 (0x80)
Format : AC-3
Format/Info : Audio Coding 3
Mode extension : CM (complete main)
Format settings, Endianness : Big
Muxing mode : DVD-Video
Duration : 16mn 47s
Bit rate mode : Constant
Bit rate : 384 Kbps
Channel(s) : 6 channels
Channel positions : Front: L C R, Side: L R, LFE
Sampling rate : 48.0 KHz
Compression mode : Lossy
Delay relative to video : -168ms
Stream size : 46.1 MiB (5%)

Menu

General
Complete name : C:\Users\Piotr\Desktop\wesele\1\VTS_01_3.VOB
Format : MPEG-PS
File size : 1 024 MiB
Duration : 16mn 47s
Overall bit rate : 8 523 Kbps

Video
ID : 224 (0xE0)
Format : MPEG Video
Format version : Version 2
Format profile : Main@Main
Format settings, BVOP : Yes
Format settings, Matrix : Custom
Format settings, GOP : M=3, N=15
Format settings, picture structure : Frame
Duration : 16mn 47s
Bit rate : 8 000 Kbps
Width : 720 pixels
Height : 576 pixels
Display aspect ratio : 16:9
Frame rate : 25.000 fps
Standard : PAL
Color space : YUV
Chroma subsampling : 4:2:0
Bit depth : 8 bits
Scan type : Interlaced
Scan order : Top Field First
Compression mode : Lossy
Bits/(Pixel*Frame) : 0.772
Time code of first frame : 00:33:35:18
Time code source : Group of pictures header
GOP, Open/Closed : Open
Stream size : 957 MiB (93%)

Audio
ID : 189 (0xBD)-128 (0x80)
Format : AC-3
Format/Info : Audio Coding 3
Mode extension : CM (complete main)
Format settings, Endianness : Big
Muxing mode : DVD-Video
Duration : 16mn 47s
Bit rate mode : Constant
Bit rate : 384 Kbps
Channel(s) : 6 channels
Channel positions : Front: L C R, Side: L R, LFE
Sampling rate : 48.0 KHz
Compression mode : Lossy
Delay relative to video : -152ms
Stream size : 46.1 MiB (5%)

Menu

General
Complete name : C:\Users\Piotr\Desktop\wesele\1\VTS_01_4.VOB
Format : MPEG-PS
File size : 928 MiB
Duration : 15mn 13s
Overall bit rate : 8 521 Kbps

Video
ID : 224 (0xE0)
Format : MPEG Video
Format version : Version 2
Format profile : Main@Main
Format settings, BVOP : Yes
Format settings, Matrix : Custom
Format settings, GOP : M=3, N=15
Format settings, picture structure : Frame
Duration : 15mn 13s
Bit rate : 8 000 Kbps
Width : 720 pixels
Height : 576 pixels
Display aspect ratio : 16:9
Frame rate : 25.000 fps
Standard : PAL
Color space : YUV
Chroma subsampling : 4:2:0
Bit depth : 8 bits
Scan type : Interlaced
Scan order : Top Field First
Compression mode : Lossy
Bits/(Pixel*Frame) : 0.772
Time code of first frame : 00:50:23:16
Time code source : Group of pictures header
GOP, Open/Closed : Open
Stream size : 867 MiB (93%)

Audio
ID : 189 (0xBD)-128 (0x80)
Format : AC-3
Format/Info : Audio Coding 3
Mode extension : CM (complete main)
Format settings, Endianness : Big
Muxing mode : DVD-Video
Duration : 15mn 13s
Bit rate mode : Constant
Bit rate : 384 Kbps
Channel(s) : 6 channels
Channel positions : Front: L C R, Side: L R, LFE
Sampling rate : 48.0 KHz
Compression mode : Lossy
Delay relative to video : -224ms
Stream size : 41.8 MiB (5%)

Menu





Dlatego proszę doświadczonych użytkowników tego forum o rady i pomoc co zrobić żeby dvd mojej koleżanki odbierało to wesele czy zmienić jeszcze na jakiś inny format czy coś innego bo ja już nie am pomysłów?

Jeszcze raz z góry dziękuję za odpowiedzi i pomoc.
Pozdrawiam.


czwartek, 17 grudnia 2015, 01:04
Zobacz profil
Aktywny bywalec
Aktywny bywalec
Avatar użytkownika

Dołączył: poniedziałek, 31 maja 2010, 11:05
Posty: 1907
Lokalizacja: Opole
Post Re: DVD nie otwiera filmów w formacie VOB
Zanieść do tłoczni, albo kupić odtwarzacz DVD zgodne z standardem.
Niektóre "markowe" nie potrafią odtwarzać nagrywanych DVD.
Nie wgryzałem się w temat zabezpieczeń i umów partnerskich. Wystarczy że to co oddaję jest zgodne z standardem, a że za markowe trzeba dopłacić... Zanieś do tłoczni i po problemie.

EDIT
To wesele... Czym ty te 6 ścieżek audio nagrywasz? Niesamowite...

_________________
Obrazek


czwartek, 17 grudnia 2015, 03:01
Zobacz profil
Aktywny bywalec
Aktywny bywalec

Dołączył: poniedziałek, 23 stycznia 2006, 15:20
Posty: 2018
Post Re: DVD nie otwiera filmów w formacie VOB
Odtwarzacz DVD nie odtwarza nagranych płyt DVD? Skopiować na porządne płyty albo wymienić odtwarzacz na sprawny.


czwartek, 17 grudnia 2015, 13:33
Zobacz profil
Aktywny bywalec
Aktywny bywalec

Dołączył: wtorek, 29 listopada 2011, 19:52
Posty: 341
Post Re: DVD nie otwiera filmów w formacie VOB
Pinto napisał(a):
Odtwarzacz DVD nie odtwarza nagranych płyt DVD? Skopiować na porządne płyty albo wymienić odtwarzacz na sprawny.

Racja... (czasem odtwarzacz DVD/BD może być ok a problemem może być nagrywarka + marka/typ płyty DVD+/-R...) też proponuje przegrać na inny nośnik i sprawdzić na docelowym playerze...
QB

_________________
Teraz a6500, GoPro6, AG-AC160 i parę innych... OSX 10.10, AP CS6.0


czwartek, 17 grudnia 2015, 15:59
Zobacz profil
Nowy
Nowy

Dołączył: czwartek, 17 grudnia 2015, 00:23
Posty: 2
Post Re: DVD nie otwiera filmów w formacie VOB
To mówicie że to może jest wina płyty dvd to na jakiej płycie markowej mam nagrać ? I w Jakim formacie nagrywać tzn VOB czy przerabiać na AVI? Jeszcze jedno pytanie o co chodzi z tym oddaniem do tłoczni bo nie rozumie?


czwartek, 17 grudnia 2015, 20:22
Zobacz profil
Aktywny bywalec
Aktywny bywalec

Dołączył: środa, 27 października 2010, 22:03
Posty: 1360
Post Re: DVD nie otwiera filmów w formacie VOB
Nie tyle plyt co pewnie odtwarzacz do d.. pokombinuj z roznymi plytami i raczej z DVD -R, problemy czesciej sprawiaja +R. Format DVD zaklada takie a nie inne parametry tak wiec kombinowac nie ma co, jesli z 2-3 roznych plyt zadna nie zatrybi, moim zdaniem szkoda czasu na kobinacje, niech kolezanka kupi sobie jakas vive za 100zl i po sprawie.
Co do plyt najlepsze w tej chwili to moim zdaniem te http://allegro.pl/dvd-r-jvc-4-7gb-tayio ... 48848.html


Ostatnio edytowano czwartek, 17 grudnia 2015, 22:03 przez jacekxyz, łącznie edytowano 1 raz

czwartek, 17 grudnia 2015, 21:58
Zobacz profil
Moderator
Moderator

Dołączył: środa, 26 lipca 2006, 10:57
Posty: 4514
Lokalizacja: Tczew
Post Re: DVD nie otwiera filmów w formacie VOB
Kiedyś, gdy nagrywało się więcej płyt, podpowiadaliśmy sobie nawzajem, jakie akurat płytki są najlepsze. Teraz nie wiadomo, bo nawet znani wytwórcy, lokują produkcję w coraz innej chińskiej fabryce. Próbuj. Zacznij może Verbatim, zobacz potem Esperanza (o ile robią jeszcze płytki).

Zdecydowanie VOBy, oparte o kodek obrazu mpeg2.

Wpisz w Google tłocznia płyt DVD i możesz sobie wybrać którąś, poczytać.

PS Brzmi to mało prawdopodobnie na początku, ale jacekxyz i koledzy wyżej mają rację: odtwarzacze DVD mniej znanych firm, z reguły sprawiają mniej kłopotów i otwierają wszystko jak leci. Mnie dopóki się nie zepsuł najlepiej służył taki, o którym nawet Chińczycy nie wiedzieli kto go zrobił. :)

_________________
最诚挚的问候


czwartek, 17 grudnia 2015, 21:59
Zobacz profil
Aktywny bywalec
Aktywny bywalec

Dołączył: środa, 27 października 2010, 22:03
Posty: 1360
Post Re: DVD nie otwiera filmów w formacie VOB
Tlocznia hmm, moim zdaniem moze byc roznie, no bo jesli zamowi kilka sztuk to bedzie to po prostu zwykle nagranie, nie tloczenie na jakis zwyklych plytach (cena).
W tej chwili jedyne pewne (japan) plyty to TY stosuje zadko ze wzgl. na cene, ale sa bardzo dobre, w ostatnim czasie powoli zaczynaja sie problemy z plytami DVD (printable), nagrywam rocznie ok 2000 plyt (nie wesela) i w tym roku juz nie moglem dostac sprawdzonych przeze mnie Philipsow i Sony, czym je zastapic?, peny jeszce troche za drogie na masowke.


czwartek, 17 grudnia 2015, 22:13
Zobacz profil
Aktywny bywalec
Aktywny bywalec
Avatar użytkownika

Dołączył: poniedziałek, 31 maja 2010, 11:05
Posty: 1907
Lokalizacja: Opole
Post Re: DVD nie otwiera filmów w formacie VOB
Pendrive od 10zł(8GB), ale jak zamawiasz 2000szt to w Chinach i logo Ci zrobią jakie chcesz.
Karty TF od 7.51zł i ta sama historia z zamawianiem 2000szt.

@Kazmiz623
Z tłocznią to żart. Nikt nie wytłoczy Ci 1 sztuki, a były odtwarzacze, których nagrywanych nie odtworzą, bo tak.
Czas jednak spakować DVD i wyrzucić je na śmietnik, oddać do muzeum.
Z blurayem jest podobnie, tyle że ten nowszy, tylko się nie przyjął...

Są minikomputerki np z Windows w formie pendrive do podłączenia przez HDMI.
Intel Compute Stick, czy tu cała kategoria Chińskich urządzeń na Windows.
Oczywiście może być i Android na starym smartfonie, tablecie byle by miał HDMI(oczywiście nie każdy uciągnie każdy film).

Jest masa rozwiązań i niestety żadnego tak prostego jak DVD :)
Podłączony jednak raz urządzenie z Androidem i skonfigurowane już w sklepie będzie mieć wypożyczalnie video i to na każdym urządzeniu z tego samego konta...

EDIT
Dla nie zdecydowanych Windows/Android są urządzenia z dualbootem. Tak kupuję w tym chińskim sklepie(sprawdzony solidny).

_________________
Obrazek


piątek, 18 grudnia 2015, 00:17
Zobacz profil
Wyświetl posty nie starsze niż:  Sortuj wg  
Stwórz nowy wątek Odpowiedz w wątku  [ Posty: 9 ] 


Kto przegląda forum

Użytkownicy przeglądający to forum: Brak zalogowanych użytkowników i 3 gości


Nie możesz rozpoczynać nowych wątków
Nie możesz odpowiadać w wątkach
Nie możesz edytować swoich postów
Nie możesz usuwać swoich postów
Nie możesz dodawać załączników

Szukaj:
Skocz do:  
Powered by phpBB © phpBB Group.
Designed by Vjacheslav Trushkin for Free Forums/DivisionCore.
Przyjazne użytkownikom polskie wsparcie phpBB3 - phpBB3.PL