Teraz jest środa, 20 czerwca 2018, 09:26




Stwórz nowy wątek Odpowiedz w wątku  [ Posty: 8 ] 
 Fire Wire nie zgrywa jak powinien z sony A1E i przeplot 
Autor Wiadomość
Bywalec
Bywalec

Dołączył: czwartek, 29 lipca 2010, 11:50
Posty: 18
Post Fire Wire nie zgrywa jak powinien z sony A1E i przeplot
Czesc

Problem jest taki ze na moim slubie rodzina nagrywala kamera Sony A1E.
Kamera byla pozyczona i mialem doslownie kilka minut na zrozumienie jej tuz przed slubem.
Ustawilem jakosc 1080i (przynajmniej tak mi sie wydaje) i kilka innych parametrow.
Obrazek
Kod:
http://imageshack.us/photo/my-images/402/img4822o.jpg/


Problem pojawil sie podczas zgrywania materialu na komputer, uzylem kabla fire wire, i jakiegos programiku z netu, mialem bardzo malo czasu na cala operacje poniewaz rodzina sie rozjezdzala i zabierala kamere ze soba.

Adobe Premiere nie bardzo chcial sie laczyc z kamera, dalo sie przewijac kasete z Adobe, oglada ale nie nagrywac.
Sciagnalem jakis soft MooGear DV capture czy cos takiego.
Max jakosc jaka on oferowal to 720x576 DV PAL, wiec zdziebko gorzej niz 1920x1080.
Obrazek
Kod:
http://imageshack.us/photo/my-images/28/img4823e.jpg/


Pytanie do znawcow:
Czy nagrany material do Full HD i czy da sie go stamtad jakos wyciagnac?


sobota, 11 czerwca 2011, 20:44
Zobacz profil
Aktywny bywalec
Aktywny bywalec

Dołączył: środa, 27 października 2010, 22:03
Posty: 1356
Post Re: Fire Wire nie zgrywa jak powinien z sony A1E i przeplot
Sciagnij program Gspot i sprawdz nim zgrane pliki, bedziesz wiedzial na 100% co ostatecznie ci sie zgralo (rozdzialka, kodek), jesli zgrywales na takich ustawienach jak na foto to "po ptokach" typowy PAL (czyli SD nie HD)


sobota, 11 czerwca 2011, 23:05
Zobacz profil
Bywalec
Bywalec

Dołączył: czwartek, 29 lipca 2010, 11:50
Posty: 18
Post Re: Fire Wire nie zgrywa jak powinien z sony A1E i przeplot
zgralo sie to co ponizej, ale zauwaz ze na monitorku w kamerce jest napisane 1080i podczas zgrywania, stad podejrzewam ze nagralo sie to na kamerze jako 1080i a nie PAL, nie wiem co jest przyczyna ze material zgrany przez Fire Wire to pal, za wolny kabel? za slaby program? przegrywanie w trybie microsoft DV? ustawienie w kamerzy zeby wysylac to jako 720x576?

General
Complete name : T:\Film Wesele\00001.avi
Format : AVI
Format/Info : Audio Video Interleave
Format_Commercial_IfAny : DV
Format profile : OpenDML
File size : 13.0 GiB
Duration : 1h 1mn
Overall bit rate : 30.3 Mbps
Recorded date : 2011-06-04 16:41:08

Video
ID : 0
Format : DV
Codec ID : dvsd
Codec ID/Hint : Sony
Duration : 1h 1mn
Bit rate mode : Constant
Bit rate : 24.4 Mbps
Width : 720 pixels
Height : 576 pixels
Display aspect ratio : 16:9
Frame rate mode : Constant
Frame rate : 25.000 fps
Standard : PAL
Color space : YUV
Chroma subsampling : 4:2:0
Bit depth : 8 bits
Scan type : Interlaced
Bits/(Pixel*Frame) : 2.357
Stream size : 12.4 GiB (95%)
Encoding settings : ae mode=full automatic / wb mode=automatic / white balance= / fcm=manual focus

Audio
ID : 1
Format : PCM
Format settings, Endianness : Little
Format settings, Sign : Signed
Codec ID : 1
Codec ID/Hint : Microsoft
Duration : 1h 1mn
Bit rate mode : Constant
Bit rate : 1 536 Kbps
Channel(s) : 2 channels
Sampling rate : 48.0 KHz
Bit depth : 16 bits
Stream size : 677 MiB (5%)
Interleave, duration : 40 ms (1.00 video frame)
Interleave, preload duration : 40 ms


sobota, 11 czerwca 2011, 23:14
Zobacz profil
Aktywny bywalec
Aktywny bywalec

Dołączył: środa, 27 października 2010, 22:03
Posty: 1356
Post Re: Fire Wire nie zgrywa jak powinien z sony A1E i przeplot
Zgrales sobie w SD, jak widac na fotce w kamerze jest w HD. Przyczyna jest to, ze taki sobie format wybrales do zgrywania. Jesli tym programem nie da sie zgrac w HD, poszukaj czegos innego, chyba ze juz nie masz mozliwosci no to d....


niedziela, 12 czerwca 2011, 01:28
Zobacz profil
Aktywny bywalec
Aktywny bywalec

Dołączył: sobota, 17 kwietnia 2010, 11:58
Posty: 563
Post Re: Fire Wire nie zgrywa jak powinien z sony A1E i przeplot
Jedno jest pewne. Jeśli interesuje Cię jakość nagrania HDV, to musisz wybrać się do rodzinki i ponownie zgrać materiał z wesela. Użyj do tego programu HDVsplit, nim nie zrobisz takich błędów.


niedziela, 12 czerwca 2011, 01:31
Zobacz profil
Bywalec
Bywalec

Dołączył: czwartek, 29 lipca 2010, 11:50
Posty: 18
Post Re: Fire Wire nie zgrywa jak powinien z sony A1E i przeplot
OK, dzieki wielkie.

Jakiej wielkosci bedzie zgrany plik w przypadku zgrywania materialu 1080i?
Jezeli 720x576 ma 14GB, to 1920x1080 bedzie mialo z grubsza troche ponizej 40GB (na godzine materialu)?


niedziela, 12 czerwca 2011, 09:42
Zobacz profil
Aktywny bywalec
Aktywny bywalec

Dołączył: sobota, 17 kwietnia 2010, 11:58
Posty: 563
Post Re: Fire Wire nie zgrywa jak powinien z sony A1E i przeplot
Rozdzielczość HDV, czyli 1440x1080, prostokątny pixel. Ale to mogłeś już sobie doszukać, bo pewnie z 500 razy jest ta informacja podana tu na forum.
Zgrany plik ma dokładnie tyle samo objętości co Twój w DV avi. HDV to po prostu kompresja międzyklatkowa i nowszy kodek. Ale to również dowiedziałbyś się bez problemu z forum...


niedziela, 12 czerwca 2011, 11:00
Zobacz profil
Aktywny bywalec
Aktywny bywalec

Dołączył: środa, 18 maja 2005, 15:30
Posty: 466
Post Re: Fire Wire nie zgrywa jak powinien z sony A1E i przeplot
hehhe barwo volvo :D pewnie obecny temat mocno nawiązuje
Cytuj:
http://www.swiatobrazu.pl/forumwideo/viewtopic.php?f=3&t=31858&p=151946#p151946
...


niedziela, 12 czerwca 2011, 16:30
Zobacz profil
Wyświetl posty nie starsze niż:  Sortuj wg  
Stwórz nowy wątek Odpowiedz w wątku  [ Posty: 8 ] 


Kto przegląda forum

Użytkownicy przeglądający to forum: Brak zalogowanych użytkowników i 10 gości


Nie możesz rozpoczynać nowych wątków
Nie możesz odpowiadać w wątkach
Nie możesz edytować swoich postów
Nie możesz usuwać swoich postów
Nie możesz dodawać załączników

Szukaj:
Skocz do:  
Powered by phpBB © phpBB Group.
Designed by Vjacheslav Trushkin for Free Forums/DivisionCore.
Przyjazne użytkownikom polskie wsparcie phpBB3 - phpBB3.PL