Teraz jest wtorek, 16 października 2018, 23:00




Stwórz nowy wątek Odpowiedz w wątku  [ Posty: 6 ] 
 Canon Legria HF S10 - prośba o sample 25p 
Autor Wiadomość
Bywalec
Bywalec

Dołączył: wtorek, 18 sierpnia 2009, 08:21
Posty: 37
Post Canon Legria HF S10 - prośba o sample 25p
Witam serdecznie, zwracam się z prośbą do posiadaczy kamerki Canon Legria HF S10 o nawet kilkusekundowe "surowe" sample 1080p 25p 24mbs. Chcę porównać parametry swoich plików wyjściowych z plikami z innej kamerki tego samego typu - gdyż podejrzewam jakieś uszkodzenie swojej i chcę się upewnić.

Będę bardzo wdzięczny za pomoc.

PS: Ewentualnie proszę o wstawienie zawartości "mediainfo" takiego pliku.


piątek, 12 kwietnia 2013, 17:32
Zobacz profil
Bywalec
Bywalec

Dołączył: wtorek, 18 sierpnia 2009, 08:21
Posty: 37
Post Re: Canon Legria HF S10 - prośba o sample 25p
To może powiem konkretniej w czym jest rzecz - może ktoś inny nie posiadający takiej kamerki będzie w stanie mi pomóc. Poniżej przykładowe info z jednego z moich plików:

General
ID : 0 (0x0)
Complete name : D:\00015.MTS
Format : BDAV
Format/Info : Blu-ray Video
File size : 40.7 MiB
Duration : 14s 310ms
Overall bit rate mode : Variable
Overall bit rate : 23.8 Mbps
Maximum Overall bit rate : 24.0 Mbps

Video
ID : 4113 (0x1011)
Menu ID : 1 (0x1)
Format : AVC
Format/Info : Advanced Video Codec
Format profile : High@L4.0
Format settings, CABAC : Yes
Format settings, ReFrames : 2 frames
Format settings, GOP : M=3, N=12
Codec ID : 27
Duration : 14s 320ms
Bit rate mode : Variable
Bit rate : 22.7 Mbps
Width : 1 920 pixels
Height : 1 080 pixels
Display aspect ratio : 16:9
Frame rate : 25.000 fps
Color space : YUV
Chroma subsampling : 4:2:0
Bit depth : 8 bits
Scan type : Interlaced
Scan order : Top Field First
Bits/(Pixel*Frame) : 0.438
Stream size : 38.5 MiB (95%)

Audio
ID : 4352 (0x1100)
Menu ID : 1 (0x1)
Format : AC-3
Format/Info : Audio Coding 3
Mode extension : CM (complete main)
Format settings, Endianness : Big
Codec ID : 129
Duration : 14s 400ms
Bit rate mode : Constant
Bit rate : 256 Kbps
Channel(s) : 2 channels
Channel positions : Front: L R
Sampling rate : 48.0 KHz
Bit depth : 16 bits
Compression mode : Lossy
Delay relative to video : -80ms
Stream size : 450 KiB (1%)

Materiał nagrywany był jako progresywny 25p 1080p 24mbps ale jak widać w opisie mamy:

Scan type : Interlaced
Scan order : Top Field First

Stąd mój niepokój o problem techniczny kamerki. Poniżej link do archiwum w którym znajdują się:
pro1, pro2 - materiał progresywny
int1, int2 - materiał z przeplotem
got - materiał "int1" po obróbce (usunięty przeplot i zwiększona ilość klatek do 50)

http://www.sendspace.com/file/28jwn5

Jeżeli ktoś byłby chętny i dysponowałby czasem prosiłbym o rzucenie okiem na materiały progresywny i z przeplotem. A może ten model kamerki po prostu tak ma, że w info pliku progesywnego daje jako interlaced - choć trochę dziwne by to było. ustawienie w kamerze na pewno prawidłowe bo zmienia się tylko z 50i na 25p i powinno być OK.

Pozdrawiam


sobota, 13 kwietnia 2013, 20:43
Zobacz profil
Aktywny bywalec
Aktywny bywalec

Dołączył: poniedziałek, 23 stycznia 2006, 15:20
Posty: 2021
Post Re: Canon Legria HF S10 - prośba o sample 25p
Instrukcja obsługi do kamery informuje jasno na str. 176:
"Filmy nagrywane z szybkością [PF25] klatek na sekundę są konwertowane i zapisywane w pamięci w formacie 50i."
http://en.wikipedia.org/wiki/Progressiv ... nted_frame
W ogóle zajrzałeś do instrukcji chociaż raz?


sobota, 13 kwietnia 2013, 21:45
Zobacz profil
Bywalec
Bywalec

Dołączył: wtorek, 18 sierpnia 2009, 08:21
Posty: 37
Post Re: Canon Legria HF S10 - prośba o sample 25p
Czytałem ale myślałem, że dotyczy to 25 klatek na sekundę ale jako wideo z przeplotem (50i). Czyli, co kamerka ta nie "wypuści" mi prawdziwego materiału progresywnego 25p? Czy jak to jest, bo nie bardzo tę kwestię rozumiem... Materiał progresywny zapisany jako materiał z przeplotem - trochę to dziwne :)


sobota, 13 kwietnia 2013, 22:21
Zobacz profil
Aktywny bywalec
Aktywny bywalec

Dołączył: poniedziałek, 23 stycznia 2006, 15:20
Posty: 2021
Post Re: Canon Legria HF S10 - prośba o sample 25p
mihuu napisał(a):
Materiał progresywny zapisany jako materiał z przeplotem - trochę to dziwne :)

To jest powszechna praktyka, więc nie ma co się dziwić. :) Półpola górne i dolne mają taką samą fazę ruchu, więc klatka z nich złożona nie różni się od progresywnej.


niedziela, 14 kwietnia 2013, 01:58
Zobacz profil
Bywalec
Bywalec

Dołączył: wtorek, 18 sierpnia 2009, 08:21
Posty: 37
Post Re: Canon Legria HF S10 - prośba o sample 25p
A czy można zrobić jakoś z tego prawdziwy progresywny materiał 24p lub 25p? Czytałem coś o pulldown ale nie bardzo potrafię to zastosować w avisynth i jakie parametry skryptu dobrać...?

A najbardziej cieszy mnie, że z kamerką wszystko OK :) Bo już się bałem ze coś się sypie.


niedziela, 14 kwietnia 2013, 22:55
Zobacz profil
Wyświetl posty nie starsze niż:  Sortuj wg  
Stwórz nowy wątek Odpowiedz w wątku  [ Posty: 6 ] 


Kto przegląda forum

Użytkownicy przeglądający to forum: Brak zalogowanych użytkowników i 8 gości


Nie możesz rozpoczynać nowych wątków
Nie możesz odpowiadać w wątkach
Nie możesz edytować swoich postów
Nie możesz usuwać swoich postów
Nie możesz dodawać załączników

Szukaj:
Skocz do:  
Powered by phpBB © phpBB Group.
Designed by Vjacheslav Trushkin for Free Forums/DivisionCore.
Przyjazne użytkownikom polskie wsparcie phpBB3 - phpBB3.PL