Teraz jest sobota, 7 grudnia 2019, 02:58




Stwórz nowy wątek Odpowiedz w wątku  [ Posty: 4 ] 
 Do czego skonwertować? 
Autor Wiadomość
Nowy
Nowy

Dołączył: wtorek, 10 sierpnia 2010, 15:10
Posty: 2
Post Do czego skonwertować?
Witam,
mam pliki z kamery MTS, do jakiego formatu i z jakimi parametrami i jakim programem przekonwertować, żebym mógł obrabiać w WMM i żeby materiał po przekonwertowaniu nie stracił dużo na jakości.

Próbowałem zrobić coś, ale efekty są średnie.
Przekonwertowałem do MPG2, ale jak odtwarzam to na osi czasu w WMM to są pionowe pasy i jakość znacznie się pogarsza traci kolory. Na podglądzie jest wszystko ok, tylko po przerzuceniu na oś czasu jakość bardzo spada.

Plik z kamery:

Kamery\00038.MTS
Format : BDAV
Format/Info : Blu-ray Video
File size : 29.7 MiB
Duration : 20s 252ms
Overall bit rate mode : Variable
Overall bit rate : 12.3 Mbps
Maximum Overall bit rate : 18.0 Mbps

Video
ID : 4113 (0x1011)
Menu ID : 1 (0x1)
Format : AVC
Format/Info : Advanced Video Codec
Format profile : High@L4.0
Format settings, CABAC : Yes
Format settings, ReFrames : 2 frames
Format settings, GOP : M=2, N=13
Codec ID : 27
Duration : 20s 200ms
Bit rate mode : Variable
Bit rate : 11.3 Mbps
Maximum bit rate : 16.0 Mbps
Width : 1 440 pixels
Height : 1 080 pixels
Display aspect ratio : 16:9
Frame rate : 25.000 fps
Color space : YUV
Chroma subsampling : 4:2:0
Bit depth : 8 bits
Scan type : Interlaced
Scan order : Top Field First
Bits/(Pixel*Frame) : 0.292
Stream size : 27.3 MiB (92%)

Audio
ID : 4352 (0x1100)
Menu ID : 1 (0x1)
Format : AC-3
Format/Info : Audio Coding 3
Mode extension : CM (complete main)
Format settings, Endianness : Big
Codec ID : 129
Duration : 20s 288ms
Bit rate mode : Constant
Bit rate : 448 Kbps
Channel(s) : 6 channels
Channel positions : Front: L C R, Side: L R, LFE
Sampling rate : 48.0 KHz
Bit depth : 16 bits
Compression mode : Lossy
Delay relative to video : -80ms
Stream size : 1.08 MiB (4%)



Plik po przekonwertowaniu moim:
Format : MPEG-PS
File size : 3.51 MiB
Duration : 3s 204ms
Overall bit rate mode : Variable
Overall bit rate : 9 199 Kbps

Video
ID : 224 (0xE0)
Format : MPEG Video
Commercial name : HDV 720p
Format version : Version 2
Format profile : Main@High 1440
Format settings, BVOP : No
Format settings, Matrix : Default
Format settings, GOP : M=1, N=12
Duration : 3s 120ms
Bit rate mode : Variable
Bit rate : 8 792 Kbps
Maximum bit rate : 9 000 Kbps
Width : 1 280 pixels
Height : 720 pixels
Display aspect ratio : 16:9
Frame rate : 25.000 fps
Color space : YUV
Chroma subsampling : 4:2:0
Bit depth : 8 bits
Scan type : Progressive
Compression mode : Lossy
Bits/(Pixel*Frame) : 0.382
Stream size : 3.27 MiB (93%)

Audio
ID : 189 (0xBD)-128 (0x80)
Format : AC-3
Format/Info : Audio Coding 3
Mode extension : CM (complete main)
Format settings, Endianness : Big
Muxing mode : DVD-Video
Duration : 3s 204ms
Bit rate mode : Constant
Bit rate : 224 Kbps
Channel(s) : 2 channels
Channel positions : Front: L R
Sampling rate : 44.1 KHz
Bit depth : 16 bits
Compression mode : Lossy
Stream size : 87.6 KiB (2%)


Teraz nie wiem w czym jest problem, czy coś źle zrobiłem przy konwertowaniu? Może do innego formatu to przekonwertować albo inne parametry?


poniedziałek, 24 września 2012, 21:01
Zobacz profil
Aktywny bywalec
Aktywny bywalec

Dołączył: wtorek, 28 sierpnia 2007, 07:51
Posty: 7234
Lokalizacja: wawa
Post Re: Do czego skonwertować?
nie konwertuj, zawsze montujesz bezstratnie w tym samym kodeku, jesli amszyna jest za slaba to skorzystaj z oprogramownia z proxy , nie bedziesz sam musial recznie kombinowac


poniedziałek, 24 września 2012, 21:12
Zobacz profil
Nowy
Nowy

Dołączył: wtorek, 10 sierpnia 2010, 15:10
Posty: 2
Post Re: Do czego skonwertować?
Ale WMM nie odtworzy MTS, no i komputer za słaby, ale chcę to póki co na tym komputerze obrabiać.


poniedziałek, 24 września 2012, 21:17
Zobacz profil
Aktywny bywalec
Aktywny bywalec

Dołączył: poniedziałek, 18 stycznia 2010, 17:01
Posty: 1515
Post Re: Do czego skonwertować?
wyszedł POWER DIRECTOR 11-dasz radę montować nawet na słabym kompie
http://www.cyberlink.com/downloads/trials/powerdirector-ultra/download_en_EU.html?affid=2581_977_504_20629_0_ENU_HD-PDR&utm_source=CLHP_HotDownload&utm_medium=CLHP_HotDownload_20629_powerdirector&utm_campaign=CL_Homepage

_________________
Sony NEX-VG10 nex5N nex5r Athlon 5600+ 8 gb RAM gtx-460 Adobe CS-5 kuferek do lampy


wtorek, 25 września 2012, 00:20
Zobacz profil
Wyświetl posty nie starsze niż:  Sortuj wg  
Stwórz nowy wątek Odpowiedz w wątku  [ Posty: 4 ] 


Kto przegląda forum

Użytkownicy przeglądający to forum: Google [Bot] i 6 gości


Nie możesz rozpoczynać nowych wątków
Nie możesz odpowiadać w wątkach
Nie możesz edytować swoich postów
Nie możesz usuwać swoich postów
Nie możesz dodawać załączników

Szukaj:
Skocz do:  
Powered by phpBB © phpBB Group.
Designed by Vjacheslav Trushkin for Free Forums/DivisionCore.
Przyjazne użytkownikom polskie wsparcie phpBB3 - phpBB3.PL