Teraz jest poniedziałek, 9 grudnia 2019, 13:50




Stwórz nowy wątek Odpowiedz w wątku  [ Posty: 8 ] 
 Problem z plikiem mov 
Autor Wiadomość
Stary wyjadacz
Stary wyjadacz

Dołączył: poniedziałek, 25 stycznia 2010, 11:03
Posty: 157
Post Problem z plikiem mov
Mam problem z plikami mov z kamerki SJCam SJ4000. Po zaimportowaniu do Ediusa okazuje się że pliki nie mają równej ilości klatek ( powinno być 30 ) tylko mają 29,75 Drugi problem to że podczas przeciągnięcia jakiegokolwiek pliku na timeline dźwięk rozjeżdża się z obrazem ( brak synchronizacji obrazu z dźwiękiem ). Sprawdzałem na kilku programach i wszędzie dzieje się to samo. Ma ktoś jakiś pomysł co z tym zrobić ? Dodam że podczas zwykłego odtwarzania np w oknie podglądu ediusa jest wszystko ok . Problem zaczyna się podczas "ingerencji" w plik czy to export czy to przycięcie np . Z góry dziękuję za pomoc.


poniedziałek, 1 lutego 2016, 09:47
Zobacz profil
Aktywny bywalec
Aktywny bywalec
Avatar użytkownika

Dołączył: poniedziałek, 31 maja 2010, 11:05
Posty: 1906
Lokalizacja: Opole
Post Re: Problem z plikiem mov
Podaj parametry pliku programem mediainfo widok htlm(wklej je tutaj). Printscreen parametrów projektu Settings\Project Settings przycisk Change current setting...

EDIT
Aha wersja Ediusa.

_________________
Obrazek


poniedziałek, 1 lutego 2016, 20:59
Zobacz profil
Stary wyjadacz
Stary wyjadacz

Dołączył: poniedziałek, 25 stycznia 2010, 11:03
Posty: 157
Post Re: Problem z plikiem mov
Dziękuję Arku za zainteresowanie. W załączniku plik info i project settings. Frame rate starałem się ustawić jak najbardziej podobne do tego co w pliku ale bez względu czy to było 30 klatek czy inaczej wszystko się rozjeżdżało . program to edius 8


Załączniki:
Project setting.jpg
Project setting.jpg [ 118.33 | Przeglądane 144 razy ]


Ostatnio edytowano wtorek, 2 lutego 2016, 14:28 przez carloscenzurro, łącznie edytowano 1 raz
wtorek, 2 lutego 2016, 14:25
Zobacz profil
Stary wyjadacz
Stary wyjadacz

Dołączył: poniedziałek, 25 stycznia 2010, 11:03
Posty: 157
Post Re: Problem z plikiem mov
carloscenzurro napisał(a):
Dziękuję Arku za zainteresowanie. W załączniku plik info i project settings. Frame rate starałem się ustawić jak najbardziej podobne do tego co w pliku ale bez względu czy to było 30 klatek czy inaczej wszystko się rozjeżdżało .




Video

ID : 1
Format : AVC
Format/Info : Advanced Video Codec
Format profile : High@L4
Format settings, CABAC : Yes
Format settings, ReFrames : 2 frames
Format settings, GOP : M=3, N=15
Codec ID : avc1
Codec ID/Info : Advanced Video Coding
Duration : 30mn 0s
Source duration : 29mn 59s
Bit rate : 11.4 Mbps
Width : 1 920 pixels
Height : 1 080 pixels
Display aspect ratio : 16:9
Frame rate mode : Constant
Frame rate : 29.752 fps
Color space : YUV
Chroma subsampling : 4:2:0
Bit depth : 8 bits
Scan type : Progressive
Bits/(Pixel*Frame) : 0.185
Stream size : 2.39 GiB (90%)
Source stream size : 2.49 GiB (94%)
Language : English
Encoded date : UTC 2016-01-31 09:56:42
Tagged date : UTC 2016-01-31 09:56:42
Color range : Full
Color primaries : BT.709
Transfer characteristics : BT.709
Matrix coefficients : BT.709
mdhd_Duration : 1800277



Audio

ID : 2
Format : PCM
Format settings, Endianness : Little
Format settings, Sign : Signed
Codec ID : sowt
Duration : 30mn 0s
Source duration : 30mn 0s
Bit rate mode : Constant
Bit rate : 705.6 Kbps
Channel(s) : 1 channel
Sampling rate : 44.1 KHz
Bit depth : 16 bits
Stream size : 151 MiB (6%)
Source stream size : 151 MiB (6%)
Language : English
Encoded date : UTC 2016-01-31 09:56:42
Tagged date : UTC 2016-01-31 09:56:42
mdhd_Duration : 1800150


wtorek, 2 lutego 2016, 14:28
Zobacz profil
Aktywny bywalec
Aktywny bywalec
Avatar użytkownika

Dołączył: poniedziałek, 31 maja 2010, 11:05
Posty: 1906
Lokalizacja: Opole
Post Re: Problem z plikiem mov
O co chodzi z Arkiem?
Jakaś dziwna egzotyka wychodzi z tej kamerki, Raz że fps, a dwa audio nie 48kHz. Bardzo diwne. Podwieś gdzieś sample na jakimś dysku, wetransfer, google, onet, czy co tam ci wygodnie. Patrze w manuale i nic tam takiego nie ma... Nie konwertowałeś tego pliku wcześniej, jakimś mexykańskim programem, albo jesteś pewien że nie jesteś właścicielem podróbki?
Na razie wygląda na to że możesz ja zwrócić z tytułu niezgodności towaru z opisem, bo z opisem producenta nie zgadza się nic, poza tym to kamera NTSC, a my tu używamy PAL, co prędzej czy później boleśnie odczujesz przy montażu i mieszaniu z innymi źródłami.

_________________
Obrazek


wtorek, 2 lutego 2016, 21:48
Zobacz profil
Stary wyjadacz
Stary wyjadacz

Dołączył: poniedziałek, 25 stycznia 2010, 11:03
Posty: 157
Post Re: Problem z plikiem mov
Tak wiem pomyliłem imiona przepraszam. Nic z plikiem nie robiłem jest to plik prosto z kamery. Ja tą kamerkę kupiłem bardziej z ciekawości niż miała by mi do czegoś konkretnego służyć. Dziś dodam linka to sobie ściągniesz plik i zerkniesz.

Link do pliku https://onedrive.live.com/redir?resid=1 ... ideo%2cMOV


środa, 3 lutego 2016, 09:21
Zobacz profil
Aktywny bywalec
Aktywny bywalec
Avatar użytkownika

Dołączył: poniedziałek, 31 maja 2010, 11:05
Posty: 1906
Lokalizacja: Opole
Post Re: Problem z plikiem mov
2.5GB po to żeby sprawdzić parametry pliku, serio? Nie możesz jej włączyć na minutę i taki materiał udostępnić? To z tego hostingu nie chce się ściągać, pisze mi 40min...

EDIT
W końcu się pobrało. Problemem jest audio w 44.1kHz w pliku i jako opcja w Ediusie, która zwyczajnie nie działa...

Pobież program GoldWave, Wczytaj plik mov. W opcjach programu Effect/Resample wybiez 48kHz(48000) i zapisz plik File/Save As... Z rozwijanej listy wybierz wav(domyślna nazwa będzie wczytanego pliku video) i zaakceptuj.

W edytorze, już dowolnym wybierz projekt z audio 48kHz. Wczytaj pliki. Na timeline wyrzuć, albo wycisz oryginalne audio(to w pliku mov) i zastąp je wav. Teraz edycja nie będzie sprawiała problemów i to w dowolnym edytorze.

_________________
Obrazek


środa, 3 lutego 2016, 17:27
Zobacz profil
Stary wyjadacz
Stary wyjadacz

Dołączył: poniedziałek, 25 stycznia 2010, 11:03
Posty: 157
Post Re: Problem z plikiem mov
Rober bardzo dziękuję !!


środa, 3 lutego 2016, 20:13
Zobacz profil
Wyświetl posty nie starsze niż:  Sortuj wg  
Stwórz nowy wątek Odpowiedz w wątku  [ Posty: 8 ] 


Kto przegląda forum

Użytkownicy przeglądający to forum: Brak zalogowanych użytkowników i 3 gości


Nie możesz rozpoczynać nowych wątków
Nie możesz odpowiadać w wątkach
Nie możesz edytować swoich postów
Nie możesz usuwać swoich postów
Nie możesz dodawać załączników

Szukaj:
Skocz do:  
Powered by phpBB © phpBB Group.
Designed by Vjacheslav Trushkin for Free Forums/DivisionCore.
Przyjazne użytkownikom polskie wsparcie phpBB3 - phpBB3.PL